Details for this torrent 

Type SE
Magnet link Uploaded Today 13.29, ULed by piratebay HIDE MY IP NOW
Lost S01E18 - AVM
Type:
Video > TV shows
Files:
1
Size:
133.9 MiB (140401596 Bytes)
Spoken language(s):
English
Tag(s):
Lost Mobile
Uploaded:
2009-08-06 05:10:42 GMT
By:
SysProfile
Seeders:
0
Leechers:
0
Comments
0  

Info Hash:
E46CC59CF0EC3393D22CC93500F67E86BB33EE58




(Problems with magnets links are fixed by upgrading your torrent client!)
AVIDMobile - http://www.avidmobile.com.ar (Mobile media)

Video
ID                               : 1
Format                           : MPEG-4 Visual
Format profile                   : [email protected]
Format settings, BVOP            : No
Format settings, QPel            : No
Format settings, GMC             : No warppoints
Format settings, Matrix          : Default (H.263)
Codec ID                         : 20
Duration                         : 43mn 8s
Bit rate mode                    : Variable
Bit rate                         : 365 Kbps
Maximum bit rate                 : 2 230 Kbps
Width                            : 320 pixels
Height                           : 240 pixels
Display aspect ratio             : 4/3
Frame rate mode                  : Variable
Frame rate                       : 23.976 fps
Minimum frame rate               : 23.974 fps
Maximum frame rate               : 23.981 fps
Resolution                       : 24 bits
Colorimetry                      : 4:2:0
Scan type                        : Progressive
Bits/(Pixel*Frame)               : 0.198
Stream size                      : 113 MiB (84%)

Audio
ID                               : 2
Format                           : AAC
Format/Info                      : Advanced Audio Codec
Format version                   : Version 4
Format profile                   : LC
Format settings, SBR             : No
Codec ID                         : 40
Duration                         : 43mn 8s
Bit rate mode                    : Variable
Bit rate                         : 66.15 Kbps
Maximum bit rate                 : 103 Kbps
Channel(s)                       : 2 channels
Channel positions                : L R
Sampling rate                    : 22.05 KHz
Resolution                       : 16 bits
Stream size                      : 20.6 MiB (15%)